موضوع: سؤال بخصوص premiere pro cs3

ردود: 7 | زيارات: 958
  1. #1

    سؤال بخصوص premiere pro cs3

    انا جديد على برنامج premiere pro cs3
    نزلته و كل شيء اوكي.
    لكن المشكلة العرض بطيء,
    يعني انا حطيت فيديو avi واعمل play لكن العرض بطيء والصور تعلق,
    و جهازي من النوع القديم:
    intel celeron 2.5
    1gb ram
    geforce fx 5500

    ؟؟؟؟


  2. #2
    عضو متميز
    صور رمزية ALSOODY
    تاريخ التسجيل
    Aug 2007
    المنطقة
    السعودية-جدة
    العمر
    28
    ردود
    1,779
    اظن ان لثقل الملف اثر على الجهاز .
    كن كالطير يحب العلو

  3. #3
    Graphics Designer
    صور رمزية Al-Muqrin
    تاريخ التسجيل
    Dec 2007
    المنطقة
    Riyadh, Saudi Arabia, Saudi Arabia
    ردود
    2,663
    المشكلة اخي الحبيب من الجهاز بطيئ

    فالبريمير برنامج ثقيل ومحتاج اجهزة عالية جدااااااا

    ومعالج كويس جداااااااااا


    تحياتي اخي الحبيب

  4. #4
    مشرف منبر Video Editing
    صور رمزية Steady Cam
    تاريخ التسجيل
    Sep 2002
    المنطقة
    RIYADH
    ردود
    6,357
    ما صيغة الفديو وحجم كادره ؟ و ما اعدادات البروجكت ؟
    -







    Could it be you Or do I lose my way

    I'm here but Colorblind



    -

  5. #5
    انا اصلا شغال 3dsmax على جهازي و كل شيء عادي وما يعلق
    والفيديو الذي وضعته في premiere فيديو عادي ما ضفت عليه اي effects

    اعدادات البروجكت:






    خصائص الفيديو:
    Format : AVI
    Format/Info : Audio Video Interleave
    File size : 817 MiB
    Duration : 1h 19mn
    Overal bit rate : 1434 Kbps

    Video
    Format : MPEG-4 Visual
    Format profile : Streaming Video@L1
    Format settings, BVOP : Yes
    Format settings, QPel : No
    Format settings, GMC : No warpoints
    Format settings, Matrix : Default
    Muxing mode : Packet Bitstream
    Codec ID : XVID
    Codec ID/Hint : XviD
    Duration : 1h 19mn
    Bit rate : 1297 Kbps
    Width : 640 pixels
    Height : 336 pixels
    Display aspect ratio : 1.905
    Frame rate : 30.000 fps
    Original frame rate : 25.000 fps
    Resolution : 8 bits
    Colorimetry : 4:2:0
    Scan type : Progressive
    Bits/(Pixel*Frame) : 0.201
    Stream size : 739 MiB
    Writing library : XviD 1.2.0.dev47 (UTC 2006-11-01)

    Audio
    Format : MPEG Audio
    Format version : Version 1
    Format profile : Layer 3
    Codec ID : 55
    Codec ID/Hint : MP3
    Duration : 1h 19mn
    Bit rate mode : Constant
    Bit rate : 128 Kbps
    Channel(s) : 2 channels
    Sampling rate : 44.1 KHz
    Resolution : 16 bits
    Stream size : 72.9 MiB

    و جربت اكثر من صيغة mov و MPEG Video و نفس المشكلة ,و لاحظت انه دائما يوجد خط احمر و حسب ما فهمت ان premiere لن يستطيع عرض الفيديو بكامل سرعته:


    اذا ما في حل ,
    انصحوني ببرنامج اخر سريع ,لان الوضع لا يحتمل مع هذا البطء.
    أخر تعديل بواسطة mano2005 في 23 / 07 / 2008 الساعة 07:05 AM

  6. #6
    ولا حد يعرف الحل,
    انا شايف مشاءالله في محترفين كتير في القسم,
    ياريت تساعدوني.

  7. #7
    خلاص انحلت المشكلة,
    نزلت sony vegas 8 pro
    والبرنامج صاروخ .

Bookmarks

قوانين الموضوعات

  • لا يمكنك اضافة موضوع جديد
  • لا يمكنك اضافة ردود
  • لا يمكنك اضافة مرفقات
  • لا يمكنك تعديل مشاركاتك
  •  
  • كود BB مفعّل
  • رموز الحالة مفعّل
  • كود [IMG] مفعّل
  • [VIDEO] code is مفعّل
  • كود HTML معطل